Details for this torrent 

For Latest Updates Join Us On Reddit And Follow On Twitter
please report any problem and contact us at [email protected]


We Need Your Help Please Donate And Support US

S.W.A.T. (2017) Season 2. revittony
Type:
Video > TV shows
Files:
25
Size:
7.54 GiB (8092527039 Bytes)
Info:
IMDB
Tag(s):
tt6111130
Uploaded:
2019-05-17 16:50:58 GMT
By:
revittony1 Trusted
Seeders:
4
Leechers:
5
Comments
0  

Info Hash:
45CE7B9A03A269FEB1F13B2C1759273882B4E427




(Problems with magnets links are fixed by upgrading your torrent client!)
 https://www.imdb.com/title/tt6111130




Format : Matroska 
Format version : Version 4 
Overall bit rate : 1 016 kb/s 
Encoded date : UTC 2018-09-28 00:06:23 
Writing application : mkvmerge v8.8.0 ('Wind at my back') 64bit 
Writing library : libebml v1.3.3 + libmatroska v1.4.4 

Video 
ID : 1 
Format : AVC 
Format/Info : Advanced Video Codec 
Format profile : [email protected] 
Format settings : CABAC / 5 Ref Frames 
Format settings, CABAC : Yes 
Format settings, Reference frames : 5 frames 
Codec ID : V_MPEG4/ISO/AVC 
Duration : 42 min 22 s 
Bit rate : 899 kb/s 
Width : 720 pixels 
Height : 404 pixels 
Display aspect ratio : 16:9 
Frame rate mode : Constant 
Frame rate : 23.976 (24000/1001) FPS 
Color space : YUV 
Chroma subsampling : 4:2:0 
Bit depth : 8 bits 
Scan type : Progressive 
Bits/(Pixel*Frame) : 0.129 
Stream size : 272 MiB (88%) 
Writing library : x264 core 157 r2935 545de2f 
Default : Yes 
Forced : No 
Color range : Limited 
Matrix coefficients : BT.709 

Audio 
ID : 2 
Format : AAC LC 
Format/Info : Advanced Audio Codec Low Complexity 
Codec ID : A_AAC-2 
Duration : 42 min 22 s 
Bit rate : 115 kb/s 
Channel(s) : 2 channels 
Channel layout : L R 
Sampling rate : 48.0 kHz 
Frame rate : 46.875 FPS (1024 SPF) 
Compression mode : Lossy 
Delay relative to video : 20 ms 
Stream size : 34.8 MiB (11%) 
Default : Yes 
Forced : No